Alpstorrent'i Sosyal Medyada Takip Edin ; Yeni Çıkan ve Son Paylaşılan Filmlerden İlk Sizin Haberiniz Olsun.

Şirinler 2 – The Smurfs 2 (2013) – Cam – Orjinal Dil
seeders : 0 leechers : 0
Filmi İndir
  • Film
  • Trailer
  • Yorumlar
IMDB Puanı
5.2
Film Şirinler 2 – The Smurfs 2 (2013) – Cam – Orjinal Dil Çıkış Tarihi
Dili:
Tür
Yönetmen
AÇIKLAMA

Vizyon Tarihi: 01 Ağustos 2013

Yapımı : 2013 – ABD

Tür : Animasyon , Aile , Komedi

Süre: 110 Dak.

Yönetmen : Raja Gosnell

Oyuncular : Neil Patrick Harris , Katy Perry , Christina Ricci , Jayma Mays , Brendan Gleeson

Senaryo : David Ronn

Yapımcı : Jordan Kerner

Kötü büyücü Gargamel, bir çift Şirinler benzeri haylaz karakterler yaratıyor ve onlara da Haylazlar ismini vererek, sayelerinde çok güçlü ve büyülü Şirin özünü elde edebilmeyi umuyor. Ancak, Gargamel istediği Şirin özünü sadece gerçek bir Şirin’den alabileceğini ve sadece Şirine’nin bildiği gizli büyülü sözler sayesinde Haylazlar’ın gerçek Şirinler’e dönüşebileceklerini öğrendiğinde Şirine’yi kaçırıyor ve onu dünyanın en büyük büyücüsü olarak milyonların hayranlığını kazandığı Paris’e getiriyor. Şirine’yi kurtarmak için Şirin Baba, Sakar Şirin ve Süslü Şirin’in dünyamıza dönerek insan dostları Patrick ve Grace Winslow ile işbirliği yapmaları gerekiyor.

The.Smurfs.2.2013.CAM.READ.NFO.XViD-VAiN

iMDB……..: http://www.imdb.com/title/tt2017020/

PLOT……..: The Smurfs team up with their human friends to rescue Smurfette, who has been kidnapped by Gargamel since she knows a secret spell that can turn the evil sorcerer\’s newest creation – creatures called the Naughties – into real Smurfs.

T E C H N i C A L . i N F O . . .
Format : AVI
Format/Info : Audio Video Interleave
File size : 1.37 GiB
Duration : 1h 37mn
Overall bit rate : 2 022 Kbps
Movie name : Smurfiki.2.2013.D.TS.1400MB.INTERCINEMA
Director : INTERCINEMA
Writing application : VirtualDubMod 1.5.10.2 (build 2540/release)
Writing library : VirtualDubMod build 2540/release
Copyright : http://intercinema.net

Video
ID : 0
Format : MPEG-4 Visual
Format profile : Advanced Simple@L5
Format settings, BVOP : 2
Format settings, QPel : No
Format settings, GMC : No warppoints
Format settings, Matrix : Default (MPEG)
Muxing mode : Packed bitstream
Codec ID : XVID
Codec ID/Hint : XviD
Duration : 1h 37mn
Bit rate : 1 882 Kbps
Width : 640 pixels
Height : 304 pixels
Display aspect ratio : 2.2:1
Frame rate : 29.970 fps
Color space : YUV
Chroma subsampling : 4:2:0
Bit depth : 8 bits
Scan type : Progressive
Compression mode : Lossy
Bits/(Pixel*Frame) : 0.323
Stream size : 1.28 GiB (93%)
Writing library : XviD 64

Audio
ID : 1
Format : MPEG Audio
Format version : Version 1
Format profile : Layer 3
Codec ID : 55
Codec ID/Hint : MP3
Duration : 1h 37mn
Bit rate mode : Constant
Bit rate : 128 Kbps
Channel(s) : 2 channels
Sampling rate : 44.1 KHz
Compression mode : Lossy
Stream size : 88.9 MiB (6%)
Alignment : Split accross interleaves
Interleave, duration : 33 ms (1.00 video frame)

Film Sinema çekimidir.



Şirinler 2 – The Smurfs 2 (2013) – Cam – Orjinal Dil için 2 cevap

  1. Burak Soykan der ki:

    sinema çekimimi bu ?

  2. funda der ki:

    yazıyor ya sinema çekimi tabii tteşekkürler admin

Bir Cevap Yazın

E-posta hesabınız yayınlanmayacak. Gerekli alanlar * ile işaretlenmişlerdir

Şu HTML etiketlerini ve özelliklerini kullanabilirsiniz: <a href="" title=""> <abbr title=""> <acronym title=""> <b> <blockquote cite=""> <cite> <code> <del datetime=""> <em> <i> <q cite=""> <strike> <strong>